Torrent Details For "The Nun 2018 720p BluRay x264 Dual Audio [Hindi DD 5 1 - English 5 1] ESub [MW]"

The Nun 2018 720p BluRay x264 Dual Audio [Hindi DD 5 1 - English 5 1] ESub [MW]

To download this torrent, you need a BitTorrent client: Vuze or BTGuard
Download this torrent
Download using Magnet Link

Health:
Seeds: 248
Leechers: 160
Completed: 1,177 
Last Checked: 08-12-2018 06:44:38

Uploader Reputation points : 5222
External: Torrent



BTGuard - BitTorrent Anonymously


Write a Review for the Uploader:   20   Say Thanks with one good review:


Details
Name:The Nun 2018 720p BluRay x264 Dual Audio [Hindi DD 5 1 - English 5 1] ESub [MW]
Description:
 
   General
Format : Matroska
Format version : Version 4 / Version 2
File size : 1.19 GiB
Duration : 1 h 36 min
Overall bit rate : 1 768 kb/s
 Video
ID : 1
Format : AVC
Format/Info : Advanced Video Codec
Format profile : [email protected]  Format settings : CABAC / 4 Ref Frames
Format settings, CABAC : Yes
Format settings, RefFrames : 4 frames
Codec ID : V_MPEG4/ISO/AVC
Duration : 1 h 36 min
Bit rate : 1 350 kb/s
Width : 1 280 pixels
Height : 532 pixels
Display aspect ratio : 2.40:1
Frame rate mode : Constant
Frame rate : 23.976 (24000/1001) FPS
Color space : YUV
Chroma subsampling : 4:2:0
Bit depth : 8 bits
Scan type : Progressive
Bits/(Pixel*Frame) : 0.083
Stream size : 932 MiB (76%)
Writing library : x264 core 155 r2901 7d0ff22
Default : Yes
Forced : No
 Audio #1
ID : 2
Format : AC-3
Format/Info : Audio Coding 3
Codec ID : A_AC3
Duration : 1 h 36 min
Bit rate mode : Constant
Bit rate : 224 kb/s
Channel(s) : 6 channels
Channel positions : Front: L C R, Side: L R, LFE
Sampling rate : 48.0 kHz
Frame rate : 31.250 FPS (1536 SPF)
Bit depth : 16 bits
Compression mode : Lossy
Stream size : 155 MiB (13%)
Language : Hindi
Service kind : Complete Main
Default : No
Forced : No
 Audio #2
ID : 3
Format : AAC
Format/Info : Advanced Audio Codec
Format profile : LC
Codec ID : A_AAC-2
Duration : 1 h 36 min
Bit rate : 192 kb/s
Channel(s) : 6 channels
Channel positions : Front: L C R, Side: C, Back: L R
Sampling rate : 48.0 kHz
Frame rate : 46.875 FPS (1024 SPF)
Compression mode : Lossy
Stream size : 133 MiB (11%)
Language : English
Default : No
Forced : No
 Text
ID : 4
Format : UTF-8
Codec ID : S_TEXT/UTF8
Codec ID/Info : UTF-8 Plain Text
Duration : 1 h 35 min
Bit rate : 38 b/s
Count of elements : 941
Stream size : 27.0 KiB (0%)
Language : English
Default : Yes
Forced : No
   

 Click To View Image  http://pichub.site/image/c8tR8               http://pichub.site/image/c8zKJ                  http://pichub.site/image/c8BJh                  http://pichub.site/image/c88P5               http://pichub.site/image/c8gor                  http://pichub.site/image/c8Khj        
 
YouTube Video:
Category:Movies
Language:English  English
Total Size:1.19 GB
Info Hash:8CCDC005C02ADEE08241A48004DA0F28964A39DA
Added By:MovieFreak Verified UploaderMovie Pirate
Date Added:07-12-2018 06:04:51
Torrent Status:Torrent Verified


Ratings:Not Yet Rated (Log in to rate it)


Tracker:
udp://tracker.coppersurfer.tk:6969/announce

This Torrent also has backup trackers
URLSeedersLeechersCompleted
udp://tracker.coppersurfer.tk:6969/announce5743337
udp://tracker.pirateparty.gr:6969/announce5743337
udp://tracker.tiny-vps.com:6969/announce5733270
udp://9.rarbg.to:2730/announce000
udp://tracker.opentrackr.org:1337/announce5429169
udp://tracker.leechers-paradise.org:6969/announce000
udp://public.popcorn-tracker.org:6969/announce000
udp://tracker.vanitycore.co:6969/announce231264


File List: 



Warning! Do not Download Torrents Without a VPN!
Your IP Address is .   Location is
Your Internet Provider and Government can track your torrent Activity! Hide your IP ADDRESS with a VPN!
We strongly recommend using SpyOFF VPN to anonymize your Torrenting.It's FREE!
START YOUR FREE TRIAL NOW!


Comments
No comments still posted